<?xml version="1.0" standalone="no"?>
<!DOCTYPE svg PUBLIC "-//W3C//DTD SVG 1.1//EN" "http://www.w3.org/Graphics/SVG/1.1/DTD/svg11.dtd" >
<svg xmlns="http://www.w3.org/2000/svg">
<metadata></metadata>
<defs>
<font id="chicagoflfregular" horiz-adv-x="667" >
<font-face units-per-em="1000" ascent="800" descent="-200" />
<missing-glyph horiz-adv-x="320" />
<glyph horiz-adv-x="528" d="M408 804q-33 -33 -70.5 -50t-76.5 -17q-38 0 -75.5 16.5t-71.5 50.5l-56 -55q48 -48 100 -71.5t104 -23.5q53 0 104.5 24t98.5 71z" />
<glyph horiz-adv-x="333" d="M253 684v166h-166v-166h166z" />
<glyph horiz-adv-x="417" d="M207 964q-32 0 -60 -12t-49 -32.5t-33 -48.5t-12 -59q0 -32 12 -60t33 -49t49 -33.5t60 -12.5t60 12.5t49 33.5t33 49t12 60q0 31 -12 59t-33 48.5t-49 32.5t-60 12zM120 812q0 18 7 33.5t18.5 27t27.5 18.5t34 7t33.5 -7t27 -18.5t18.5 -27t7 -33.5t-7 -34t-18.5 -28 t-27 -19t-33.5 -7q-36 0 -61.5 26t-25.5 62z" />
<glyph unicode="&#xa;" horiz-adv-x="444" d="M209 859h-77l-60 -180h78zM372 859h-79l-58 -180h77z" />
<glyph horiz-adv-x="333" d="M188 0h-96v-61q0 -42 9 -66.5t29.5 -38t54 -17.5t81.5 -4v69q-35 0 -56.5 10t-21.5 46v62z" />
<glyph horiz-adv-x="528" d="M266 663l206 205h-103l-98 -101l-89 89h-108z" />
<glyph unicode="&#xd;" horiz-adv-x="333" d="M250 0v583h-166v-583h166z" />
<glyph horiz-adv-x="723" d="M133 -71h-97l580 870h96z" />
<glyph horiz-adv-x="805" d="M167 502v-502h166v502h84v83h-84v86h167v87h-241q-18 0 -35 -7.5t-29.5 -19.5t-20 -28.5t-7.5 -34.5v-83h-83v-83h83zM723 0v583h-167v-583h167zM723 667v83h-167v-83h167z" />
<glyph horiz-adv-x="750" d="M500 667v-667h167v750h-408q-18 0 -35 -7t-29.5 -19.5t-20 -29t-7.5 -34.5v-77h-83v-83h83v-500h166v500h84v83h-84v84h167z" />
<glyph horiz-adv-x="583" d="M84 287l-65 -66v-107l65 65v-179h416v83h-250v235l111 111v108l-111 -111v324h-166v-463z" />
<glyph horiz-adv-x="333" d="M84 286l-65 -65v-107l65 65v-179h166v318l73 73v109l-73 -73v323h-166v-464z" />
<glyph horiz-adv-x="675" d="M591 750h-507v-83h341v-156l-341 -313v-198h507v84h-341v160l341 312v194zM347 773l165 164h-82l-79 -81l-71 71h-86z" />
<glyph horiz-adv-x="675" d="M591 583h-507v-82h341v-21l-341 -338v-142h507v83h-341v33l341 336v131zM346 663l206 205h-103l-98 -101l-89 89h-108z" />
<glyph unicode=" "  horiz-adv-x="320" />
<glyph unicode="&#x09;" horiz-adv-x="320" />
<glyph unicode="&#xa0;" horiz-adv-x="320" />
<glyph unicode="!" horiz-adv-x="500" d="M333 0v167h-166v-167h166zM333 250v500h-166v-500h166z" />
<glyph unicode="&#x22;" horiz-adv-x="583" d="M250 501v250h-83v-250h83zM417 501v250h-84v-250h84z" />
<glyph unicode="#" horiz-adv-x="749" d="M676 607h-104l40 145h-73l-40 -145h-158l40 145h-72l-41 -145h-117v-83h93l-37 -139h-131v-84h107l-42 -155h73l44 155h155l-41 -155h72l44 155h112v84h-90l39 139h127v83zM318 524h158l-40 -139h-156z" />
<glyph unicode="$" horiz-adv-x="583" d="M84 439l166 -134v-221q-38 0 -60 23.5t-22 64.5h-84q0 -36 13 -67.5t35.5 -54.5t52.5 -36.5t65 -13.5v-83h84v83q37 0 68 13.5t52.5 37t33.5 55t12 66.5v152l-166 135v209q48 0 66 -22.5t18 -62.5h82q0 34 -13 64.5t-35.5 53t-52.5 36t-65 13.5v86h-84v-86 q-35 0 -65 -12.5t-52.5 -33t-35.5 -45.5t-13 -50v-170zM334 236l84 -67q0 -44 -22 -64.5t-62 -20.5v152zM250 528l-82 63q0 14 5 27.5t15.5 24.5t26 18t35.5 7v-140z" />
<glyph unicode="%" horiz-adv-x="841" d="M154 605q0 33 23 56t55 23t55 -23.5t23 -55.5q0 -15 -6 -29t-16.5 -24.5t-25 -17t-30.5 -6.5t-30.5 6t-25 16.5t-16.5 24.5t-6 30zM380 605q0 23 -4.5 38.5t-14.5 35.5h151l-332 -679h99l365 754h-412q-30 0 -57 -12t-47.5 -32t-32 -47t-11.5 -58q0 -30 11.5 -57 t31.5 -47.5t47 -32t58 -11.5t58 11.5t47 32t31.5 47.5t11.5 57zM609 298q-31 0 -58 -12t-47.5 -32t-32 -47t-11.5 -58t11.5 -58t32 -47.5t47.5 -32t58 -11.5t58 11.5t47.5 32t32 47.5t11.5 58t-11.5 58t-32 47t-47.5 32t-58 12zM529 149q0 34 23 57.5t57 23.5q33 0 57 -23.5 t24 -57.5q0 -16 -6.5 -30.5t-18 -25t-26 -17t-30.5 -6.5q-33 0 -56.5 23.5t-23.5 55.5z" />
<glyph unicode="&#x26;" horiz-adv-x="843" d="M579 337q16 0 46 9.5t60 36t52 74.5t22 126h-83q0 -44 -9.5 -75.5t-38 -51t-80 -28.5t-134.5 -9v-336h-166v342h81v83h-81v158h166v-158h165v71q0 39 -13 70.5t-35.5 54t-54 34.5t-67.5 12h-157q-38 0 -69 -14t-53 -37t-34 -54.5t-12 -65.5q0 -42 13.5 -67t29.5 -38.5 t29.5 -17.5l13.5 -4l-13.5 -8t-29.5 -26t-29.5 -48t-13.5 -74v-124q0 -35 12 -66.5t34 -55t53 -37t69 -13.5h157q36 0 67.5 12.5t54 35t35.5 54.5t13 70v165z" />
<glyph unicode="'" horiz-adv-x="250" d="M167 500v251h-83v-251h83z" />
<glyph unicode="(" horiz-adv-x="418" d="M84 636v-583l166 -168h84v84h-84v750h84v82h-84z" />
<glyph unicode=")" horiz-adv-x="418" d="M334 53v583l-166 165h-84v-82h84v-750h-84v-84h84z" />
<glyph unicode="*" horiz-adv-x="616" d="M533 456l-150 89l150 89l-41 71l-150 -86v175h-82v-175l-150 86l-41 -71l150 -89l-150 -89l41 -74l150 88v-174h82v174l150 -88z" />
<glyph unicode="+" horiz-adv-x="613" d="M341 417v166h-82v-166h-167v-85h167v-167h82v167h167v85h-167z" />
<glyph unicode="," horiz-adv-x="333" d="M250 -87v254h-166v-167h81v-59l-66 -65v-45h66z" />
<glyph unicode="-" horiz-adv-x="583" d="M84 332h416v85h-416v-85z" />
<glyph unicode="." horiz-adv-x="333" d="M250 0v167h-166v-167h166z" />
<glyph unicode="/" horiz-adv-x="585" d="M84 -4h83l334 805h-83z" />
<glyph unicode="0" d="M254 0h159q34 0 64.5 13.5t54 37t37.5 54t14 64.5v412q0 32 -14 62.5t-37.5 54t-54 38t-64.5 14.5h-159q-34 0 -65 -14.5t-54 -38t-37 -54t-14 -62.5v-412q0 -34 14 -64.5t37 -54t54 -37t65 -13.5zM417 84h-167v583h167v-583z" />
<glyph unicode="1" d="M417 0v750h-167l-83 -82v-85l83 85v-668h167z" />
<glyph unicode="2" d="M417 668v-211l-333 -341v-116h499v83h-331v42l331 338v116q0 33 -14.5 63.5t-39 54.5t-55.5 38.5t-64 14.5h-154q-33 0 -64 -14t-55 -37t-38.5 -53t-14.5 -63h81q0 17 8 32.5t21 27t29 18.5t33 7h161z" />
<glyph unicode="3" horiz-adv-x="666" d="M387 667l-210 -170v-80h239v-334h-164q-40 0 -64.5 24t-24.5 62h-83q0 -32 14.5 -62.5t38.5 -54t55 -38t64 -14.5h161q32 0 62.5 14.5t54 38t38 54t14.5 62.5v172q0 32 -14.5 60.5t-38 50.5t-54 34.5t-62.5 12.5h-48l217 168v82h-498v-82h303z" />
<glyph unicode="4" d="M417 750l-333 -332v-168h333v-250h166v250h84v82h-84v418h-166zM167 367l250 250v-285h-250v35z" />
<glyph unicode="5" d="M250 499v168h329v83h-495v-333h333v-334h-161q-40 0 -65.5 24t-25.5 62h-81q0 -32 14.5 -62.5t38.5 -54t55 -38t64 -14.5h158q32 0 62.5 14.5t54 38t38 54t14.5 62.5v159q0 31 -14.5 62t-38 55t-54 39t-62.5 15h-164z" />
<glyph unicode="6" d="M417 83h-167v334h167v-334zM505 667v83h-173l-248 -247v-334q0 -34 14 -64.5t37 -54t54 -37t65 -13.5h159q34 0 64.5 13.5t54 37t37.5 54t14 64.5v159q0 31 -14 62t-37.5 55t-54 39t-64.5 15h-163v35l135 133h120z" />
<glyph unicode="7" d="M244 284v-284h166v276l173 176v298h-499v-83h333v-209z" />
<glyph unicode="8" horiz-adv-x="665" d="M250 667h164v-250h-164v250zM84 489q0 -35 13.5 -57.5t29.5 -35t29.5 -17.5l13.5 -5l-13.5 -5t-29.5 -18.5t-29.5 -37.5t-13.5 -61v-83q0 -34 12 -65t34 -55t53.5 -38t69.5 -14h155q36 0 68 12.5t55 35.5t36.5 54.5t13.5 69.5v83q0 36 -14 59.5t-30.5 37.5t-30.5 19.5 l-14 5.5l14 5t30.5 17.5t30.5 35t14 57.5v92q0 38 -13.5 69.5t-36.5 53.5t-55 34t-68 12h-155q-38 0 -69.5 -13.5t-53.5 -36.5t-34 -53.5t-12 -65.5v-92zM414 84h-164v249h164v-249z" />
<glyph unicode="9" d="M250 668h167v-335h-167v335zM167 83v-83h170l246 249v330q0 36 -11.5 67t-33.5 54t-52.5 36.5t-69.5 13.5h-162q-39 0 -70.5 -13.5t-53.5 -36.5t-34 -54t-12 -67v-159q0 -42 13.5 -73.5t36.5 -53.5t54 -33t66 -11h163v-33l-136 -133h-114z" />
<glyph unicode=":" horiz-adv-x="333" d="M250 0v167h-166v-167h166zM250 417v166h-166v-166h166z" />
<glyph unicode=";" horiz-adv-x="333" d="M250 417v166h-166v-166h166zM250 -87v254h-166v-167h81v-59l-66 -65v-45h66z" />
<glyph unicode="&#x3c;" horiz-adv-x="500" d="M58 376l235 -250h167l-235 250l235 250h-167z" />
<glyph unicode="=" d="M84 417h499v83h-499v-83zM84 250h499v83h-499v-83z" />
<glyph unicode="&#x3e;" horiz-adv-x="500" d="M225 126l235 250l-235 250h-167l235 -250l-235 -250h167z" />
<glyph unicode="?" horiz-adv-x="665" d="M417 0v167h-167v-167h167zM581 539v40q0 33 -15 63.5t-39.5 54.5t-55.5 38.5t-63 14.5h-152q-32 0 -63 -14.5t-55 -38.5t-39 -54.5t-15 -63.5h81q0 17 8 33t21 28.5t29 20t33 7.5h161v-120l-167 -181v-108h167v99z" />
<glyph unicode="@" horiz-adv-x="916" d="M697 250h-78v250h-245q-17 0 -33 -6.5t-28.5 -18t-20 -27t-7.5 -32.5v-160q0 -38 25.5 -63.5t63.5 -25.5h373q18 0 34 8t27.5 20.5t18.5 27.5t7 30v215q0 39 -19 75t-49 63.5t-68 44t-77 16.5h-337q-36 0 -72 -16t-64.5 -43.5t-46 -65t-17.5 -79.5v-258q0 -44 17 -82 t46.5 -66t68 -44t80.5 -16h371v90h-347q-68 0 -110.5 36t-42.5 106v211q0 30 10.5 56t29 45.5t44 30.5t54.5 11h305q29 0 54.5 -11t44.5 -30.5t30 -45.5t11 -56v-132q0 -24 -14.5 -41t-38.5 -17zM408 418h128v-168h-128q-19 0 -29 12.5t-10 29.5v88q0 38 39 38z" />
<glyph unicode="A" d="M257 750q-29 0 -59.5 -14t-55 -37t-40 -54t-15.5 -64v-581h166v333h164v-333q8 -1 31 -1h49q27 0 51.5 0.5t35.5 0.5v581q0 33 -16 63.5t-40.5 54t-55.5 37.5t-61 14h-154zM253 418v250h164v-250h-164z" />
<glyph unicode="B" d="M97 0h331q38 0 69 14t53 37t34 54t12 64v85q0 34 -13.5 57.5t-29.5 38t-29.5 20.5l-13.5 6l13.5 5t29.5 17.5t29.5 35.5t13.5 59v89q0 38 -13.5 69t-36 53t-53.5 34t-65 12h-331v-750zM263 84v250h167v-250h-167zM263 418v250h167v-250h-167z" />
<glyph unicode="C" d="M429 750h-158q-38 0 -70 -14t-54.5 -37.5t-35 -55t-12.5 -65.5v-405q0 -38 12.5 -70t35 -55t54.5 -35.5t70 -12.5h158q36 0 66.5 12.5t53.5 35t36 53.5t13 68h-82q0 -19 -7 -35t-19 -27t-28 -17.5t-33 -6.5h-164v584h164q39 0 63 -22.5t24 -62.5h82q0 38 -13 69t-36 53 t-53.5 34t-66.5 12z" />
<glyph unicode="D" d="M84 0h329q33 0 64 14t54.5 37t37.5 54t14 65v410q0 34 -14 65t-37.5 54.5t-54.5 37t-64 13.5h-329v-750zM250 84v583h167v-583h-167z" />
<glyph unicode="E" horiz-adv-x="583" d="M417 333v85h-167v249h250v83h-416v-750h416v84h-250v249h167z" />
<glyph unicode="F" horiz-adv-x="583" d="M417 333v84h-167v250h250v83h-416v-750h166v333h167z" />
<glyph unicode="G" d="M333 334h84v-250h-167v583h184q31 0 49 -22.5t18 -63.5h82q0 32 -14 62.5t-38 54t-55 38t-64 14.5h-159q-35 0 -66 -14.5t-54 -38.5t-36 -54.5t-13 -62.5v-410q0 -35 13 -66t36 -54t53.5 -36.5t66.5 -13.5h160q38 0 69 14t53.5 37t35 54t12.5 65v249h-250v-85z" />
<glyph unicode="H" d="M417 750v-332h-167v332h-166v-750h166v333h167v-333h166v750h-166z" />
<glyph unicode="I" horiz-adv-x="500" d="M333 0v750h-166v-750h166z" />
<glyph unicode="J" horiz-adv-x="583" d="M500 750h-167v-667h-166v242h-167v-156q0 -34 14 -64.5t37.5 -54t54.5 -37t66 -13.5h157q34 0 65 13.5t54.5 37t37.5 54t14 64.5v581z" />
<glyph unicode="K" horiz-adv-x="750" d="M500 750l-250 -252v252h-166v-750h166v253l250 -253h167l-379 391l379 359h-167z" />
<glyph unicode="L" horiz-adv-x="583" d="M250 83v667h-166v-750h416v83h-250z" />
<glyph unicode="M" horiz-adv-x="1000" d="M123 750h-39v-750h83v466l301 -298l282 298v-466h166v750h-38l-377 -370z" />
<glyph unicode="N" horiz-adv-x="750" d="M167 438l460 -438h40v750h-84v-434l-460 434h-39v-750h83v438z" />
<glyph unicode="O" d="M254 0h159q34 0 64.5 13.5t54 37t37.5 54t14 64.5v412q0 32 -13.5 62.5t-36.5 54t-54 38t-66 14.5h-159q-35 0 -66 -14.5t-54 -38t-36.5 -54t-13.5 -62.5v-412q0 -34 14 -64.5t37.5 -54t54 -37t64.5 -13.5zM417 84h-167v583h167v-583z" />
<glyph unicode="P" d="M250 416v251h167v-251h-167zM417 333q35 0 65 14.5t52.5 38t35.5 53.5t13 61v83q0 36 -14 66.5t-37.5 53t-53.5 35t-61 12.5h-333v-750h166v333h167z" />
<glyph unicode="Q" d="M583 0h-130q26 4 49.5 17t41.5 34t28.5 50.5t10.5 67.5v412q0 36 -12.5 66.5t-35 53.5t-54 36t-69.5 13h-162q-39 0 -69.5 -14.5t-52 -38t-33 -54t-11.5 -62.5v-412q0 -40 13 -71.5t35.5 -53t53.5 -33t68 -11.5h163v-87h166v87zM417 84h-167v583h167v-583z" />
<glyph unicode="R" d="M250 418v250h167v-250h-167zM84 0h166v333h167v-333h166v232q0 43 -14 70.5t-30.5 44t-30.5 23l-14 6.5l14 5t30.5 19.5t30.5 41t14 69.5v72q0 37 -11.5 68t-33.5 53t-52.5 34t-68.5 12h-333v-750z" />
<glyph unicode="S" horiz-adv-x="581" d="M84 521q0 -27 18.5 -55.5t46 -57.5t60 -57.5t60 -54.5t46 -49.5t18.5 -41.5v-122h-76q-40 0 -64.5 24t-24.5 62h-84q0 -35 13.5 -65.5t37 -53.5t55 -36.5t67.5 -13.5h70q38 0 69.5 13.5t54 37t35 54t12.5 64.5v61q0 30 -18.5 61.5t-46 62t-59.5 59.5t-59.5 54.5t-46 46.5 t-18.5 36v118h66q48 0 74.5 -22.5t26.5 -62.5h82q0 34 -13.5 64.5t-37 53t-54.5 36t-66 13.5h-71q-36 0 -67.5 -13t-55 -36t-37 -53.5t-13.5 -66.5v-60z" />
<glyph unicode="T" horiz-adv-x="500" d="M500 750h-500v-83h167v-667h166v667h167v83z" />
<glyph unicode="U" d="M250 750h-166v-581q0 -32 13.5 -62.5t36.5 -54t54 -38t66 -14.5h159q35 0 66 14.5t54 38t36.5 54t13.5 62.5v581h-166v-667h-167v667z" />
<glyph unicode="V" d="M250 750h-166v-750h288l211 209v541h-166v-583l-83 -83h-84v666z" />
<glyph unicode="W" horiz-adv-x="1000" d="M417 750v-666h-167v666h-166v-750h617l215 216v534h-166v-581l-87 -85h-80v666h-166z" />
<glyph unicode="X" d="M84 750v-250q0 -39 13.5 -63.5t29.5 -38t29.5 -18l13.5 -4.5l-13.5 -5t-29.5 -18.5t-29.5 -38t-13.5 -64.5v-250h166v333h167v-333h166v250q0 38 -14 62.5t-30.5 38.5t-30.5 19.5l-14 5.5l14 4.5t30.5 18t30.5 38t14 63.5v250h-166v-332h-167v332h-166z" />
<glyph unicode="Y" d="M250 336v-336h167v336l166 165v249h-166v-293l-84 -83l-83 83v293h-166v-249z" />
<glyph unicode="Z" horiz-adv-x="675" d="M591 750h-507v-83h341v-156l-341 -313v-198h507v84h-341v160l341 312v194z" />
<glyph unicode="[" horiz-adv-x="417" d="M84 798v-917h249v83h-83v751h83v83h-249z" />
<glyph unicode="\" horiz-adv-x="641" d="M459 -84h91l-367 884h-91z" />
<glyph unicode="]" horiz-adv-x="417" d="M333 -119v917h-249v-83h83v-751h-83v-83h249z" />
<glyph unicode="^" horiz-adv-x="678" d="M345 772l-213 -271h82l131 167l131 -167h83z" />
<glyph unicode="_" d="M0 84v-84h667v84h-667z" />
<glyph unicode="`" horiz-adv-x="460" d="M206 800h-83l141 -167h83z" />
<glyph unicode="a" d="M258 500h159v-84h-165q-32 0 -62 -12t-53.5 -33t-38 -49t-14.5 -61v-89q0 -39 13.5 -71t36.5 -54.5t53.5 -34.5t64.5 -12h331v412q0 32 -12 63t-34.5 55t-54.5 38.5t-72 14.5h-154q-88 0 -130 -41.5t-42 -105.5h81q0 32 20.5 48t72.5 16zM417 333v-249h-167v249h167z" />
<glyph unicode="b" d="M250 750h-166v-750h328q40 0 72 14.5t54 38t33.5 54t11.5 62.5v244q0 33 -12.5 63.5t-35.5 54t-54.5 38t-68.5 14.5h-162v167zM250 84v416h167v-416h-167z" />
<glyph unicode="c" horiz-adv-x="588" d="M250 84v417h80q19 0 35.5 -8.5t29 -22t20 -30t7.5 -33.5h83q0 33 -15 65t-39.5 56.5t-55.5 39.5t-63 15h-79q-32 0 -62 -14.5t-54 -38.5t-38.5 -55t-14.5 -63v-240q0 -33 14.5 -64t38 -55t54 -38.5t62.5 -14.5h79q32 0 63 15.5t55.5 40t39.5 56.5t15 65h-83 q0 -18 -7 -34.5t-19.5 -29.5t-29.5 -21t-36 -8h-80z" />
<glyph unicode="d" d="M583 750h-166v-167h-161q-32 0 -63 -14.5t-55 -38t-39 -54t-15 -63.5v-244q0 -32 15 -62.5t39 -54t55 -38t63 -14.5h327v750zM417 500v-416h-167v416h167z" />
<glyph unicode="e" horiz-adv-x="665" d="M250 250h331v162q0 32 -13.5 63t-36.5 55t-55 38.5t-68 14.5h-155q-34 0 -64.5 -14.5t-54 -38.5t-37 -55t-13.5 -63v-240q0 -31 13.5 -62t36.5 -55.5t53.5 -39.5t65.5 -15h155q32 0 63 13.5t55.5 37t39.5 53.5t15 63h-82q0 -18 -8 -33t-21 -26t-30 -17.5t-35 -6.5h-155 v166zM414 333h-164v168h164v-168z" />
<glyph unicode="f" horiz-adv-x="500" d="M167 502v-502h166v502h84v83h-84v86h167v87h-241q-18 0 -35 -7.5t-29.5 -19.5t-20 -28.5t-7.5 -34.5v-83h-83v-83h83z" />
<glyph unicode="g" d="M417 501v-389h-167v389h167zM417 -117h-159q-17 0 -34 6.5t-30 17.5t-21 25.5t-8 31.5h-81q0 -36 13.5 -66.5t36.5 -52t54.5 -34t67.5 -12.5h154q37 0 68.5 11.5t55 33t36.5 54t13 74.5v613h-327q-38 0 -69.5 -14.5t-54 -38.5t-35.5 -54.5t-13 -63.5v-217q0 -33 11.5 -64 t34 -54t54 -37t72.5 -14h161v-145z" />
<glyph unicode="h" d="M84 0h166v501h167v-501h166v413q0 35 -13 66t-36 54t-54.5 36.5t-67.5 13.5h-162v167h-166v-750z" />
<glyph unicode="i" horiz-adv-x="333" d="M250 0v583h-166v-583h166zM250 667v83h-166v-83h166z" />
<glyph unicode="j" horiz-adv-x="503" d="M420 667v83h-167v-83h167zM420 -38v621h-167v-701h-77q-36 0 -64 21t-28 62h-84q0 -32 14.5 -62t38.5 -53t55 -37t64 -14h75q29 0 60 13.5t56 36t41 52t16 61.5z" />
<glyph unicode="k" horiz-adv-x="666" d="M419 583l-169 -170v337h-166v-750h166v167l170 -171h162l-290 296l290 291h-163z" />
<glyph unicode="l" horiz-adv-x="333" d="M250 0v750h-166v-750h166z" />
<glyph unicode="m" horiz-adv-x="1000" d="M417 500v-500h166v500h167v-500h166v413q0 33 -13.5 63.5t-36.5 54t-54 38t-65 14.5h-663v-583h166v500h167z" />
<glyph unicode="n" d="M410 583h-326v-583h166v500h167v-500h166v412q0 32 -13.5 63t-37 55t-55 38.5t-67.5 14.5z" />
<glyph unicode="o" d="M254 0h158q38 0 69.5 13.5t54 36.5t35 54.5t12.5 67.5v240q0 34 -12.5 65t-35 54.5t-54 37.5t-69.5 14h-158q-36 0 -67 -14t-54 -37.5t-36 -54.5t-13 -65v-240q0 -36 12.5 -67.5t35 -54.5t53.5 -36.5t69 -13.5zM417 84h-167v416h167v-416z" />
<glyph unicode="p" d="M84 -167h166v167h162q39 0 70.5 15t54 39.5t34.5 55.5t12 62v240q0 33 -13 63.5t-36 54.5t-54.5 38.5t-67.5 14.5h-328v-750zM250 84v416h167v-416h-167z" />
<glyph unicode="q" d="M417 -167h166v750h-327q-32 0 -63 -14.5t-55 -38t-39 -54t-15 -63.5v-244q0 -31 15 -61t39 -54t55 -39t63 -15h161v-167zM417 501v-418h-167v418h167z" />
<glyph unicode="r" horiz-adv-x="500" d="M84 0h166v409l18 14.5t51 31.5t79 31.5t102 14.5v82q-63 0 -109.5 -13t-78 -28t-47 -28l-15.5 -13v82h-166v-583z" />
<glyph unicode="s" horiz-adv-x="581" d="M84 377l249 -227v-67h-76q-40 0 -64.5 23t-24.5 61h-84q0 -35 13.5 -65t37 -53t55 -36t67.5 -13h70q38 0 69.5 13.5t54 37t35 54t12.5 64.5v63l-248 212v56h82q38 0 61 -22.5t23 -60.5h82q0 34 -13.5 64t-37 52.5t-54.5 36t-66 13.5h-70q-36 0 -67.5 -10t-55 -29.5 t-37 -47t-13.5 -61.5v-58z" />
<glyph unicode="t" horiz-adv-x="497" d="M164 750v-167h-80v-83h80v-408q0 -18 7.5 -34.5t20 -29.5t29.5 -20.5t35 -7.5h157v84h-83v416h83v83h-83v167h-166z" />
<glyph unicode="u" d="M256 0h327v583h-166v-500h-167v500h-166v-414q0 -35 13 -66t36.5 -54t55 -36t67.5 -13z" />
<glyph unicode="v" d="M250 583h-166v-583h286l213 216v367h-166v-406l-93 -94h-74v500z" />
<glyph unicode="w" horiz-adv-x="1000" d="M417 583v-499h-167v499h-166v-583h613l219 220v363h-166v-414l-87 -85h-80v499h-166z" />
<glyph unicode="x" d="M84 583v-133q0 -44 13.5 -74.5t29.5 -49t29.5 -26.5l13.5 -8l-13.5 -8t-29.5 -28t-29.5 -56t-13.5 -91v-109h166v250h167v-250h166v109q0 55 -14 91t-30.5 56t-30.5 28l-14 8l14 8t30.5 26.5t30.5 49t14 74.5v133h-166v-249h-167v249h-166z" />
<glyph unicode="y" d="M583 583h-166v-465h-167v465h-166v-379q0 -33 13.5 -63.5t37 -53.5t54.5 -37t67 -14h161v-152h-159q-17 0 -34 6.5t-30 17.5t-21 26t-8 32h-81q0 -32 15 -62t39 -53t55 -37t63 -14h154q32 0 63 15t55.5 39t39.5 55t15 63v611z" />
<glyph unicode="z" horiz-adv-x="675" d="M591 583h-507v-82h341v-21l-341 -338v-142h507v83h-341v33l341 336v131z" />
<glyph unicode="{" horiz-adv-x="417" d="M167 240v-227q0 -167 166 -167v83q-46 0 -64.5 23t-18.5 61v247l-63 63l63 62v244q0 38 18.5 62.5t64.5 24.5v84q-85 0 -125.5 -46t-40.5 -125v-222l-83 -83z" />
<glyph unicode="|" horiz-adv-x="417" d="M250 -83v888h-83v-888h83z" />
<glyph unicode="}" horiz-adv-x="417" d="M250 404v227q0 167 -166 167v-82q46 0 64.5 -23t18.5 -62v-246l63 -62l-63 -63v-244q0 -39 -18.5 -63t-64.5 -24v-85q85 0 125.5 46t40.5 126v222l83 82z" />
<glyph unicode="~" horiz-adv-x="668" d="M257 583q-39 0 -70.5 -12t-54.5 -33.5t-35.5 -52t-12.5 -66.5h83q0 39 26 60t59 21q29 0 47 -12.5t34.5 -28t36 -28t50.5 -12.5q38 0 68.5 12.5t52 34.5t33 52t11.5 65h-84q0 -38 -20.5 -59.5t-62.5 -21.5q-22 0 -39 12.5t-34.5 28t-38 28t-49.5 12.5z" />
<glyph unicode="&#xa1;" horiz-adv-x="500" d="M174 600v-167h166v167h-166zM174 350v-500h166v500h-166z" />
<glyph unicode="&#xa2;" horiz-adv-x="583" d="M250 516v-353q-27 0 -43.5 7t-25.5 21.5t-11.5 36.5t-2.5 51v119q0 27 3 49t12 37.5t25 23.5t43 8zM333 163v353q29 0 45.5 -11t25 -28t11 -38t2.5 -41h83q0 39 -8.5 76t-28.5 66t-52 46.5t-78 17.5v84h-83v-84q-43 0 -74 -15t-51.5 -41.5t-30.5 -63t-10 -80.5v-129 q0 -93 42 -147t124 -54v-80h83v80q50 0 82.5 17t51 45.5t26 65.5t7.5 77h-83q0 -23 -1.5 -43.5t-9 -37t-25 -26t-48.5 -9.5z" />
<glyph unicode="&#xa3;" horiz-adv-x="750" d="M84 0h489q19 0 35.5 7.5t28.5 20.5t19 30t7 36v83h-80v-39t-7 -29t-24 -18.5t-50 -6.5h-169v249h84v84h-84v273h105q21 0 33.5 -6t18.5 -17t8 -26t2 -33h83v77q0 37 -26.5 64t-66.5 27h-228q-43 0 -69 -27.5t-26 -65.5v-266h-83v-84h83v-249h-83v-84z" />
<glyph unicode="&#xa4;" horiz-adv-x="583" d="M176 368q0 25 9.5 46.5t25.5 37.5t37.5 25.5t45.5 9.5q25 0 46.5 -9.5t37.5 -25.5t25.5 -37.5t9.5 -46.5t-9.5 -46.5t-25.5 -37.5t-37.5 -25t-46.5 -9q-24 0 -45.5 9t-37.5 25t-25.5 37.5t-9.5 46.5zM294 556q-32 0 -60 -10t-45 -23l-55 54l-46 -47l53 -54 q-14 -20 -24 -47.5t-10 -60.5q0 -34 10.5 -61t24.5 -49l-55 -55l46 -47l57 56q20 -13 46 -22t58 -9q34 0 60 9.5t50 23.5l57 -58l47 48l-59 58q15 23 24.5 48t9.5 58q0 32 -9 57t-24 47l58 58l-47 47l-57 -57q-17 14 -46 25t-64 11z" />
<glyph unicode="&#xa5;" horiz-adv-x="834" d="M332 333v-333h166v333h252v84h-252v83h252v83h-133l163 167h-190l-163 -159l-161 159h-187l166 -167h-161v-83h248v-83h-248v-84h248z" />
<glyph unicode="&#xa6;" horiz-adv-x="417" d="M250 457v263h-83v-263h83zM250 0v263h-83v-263h83z" />
<glyph unicode="&#xa7;" horiz-adv-x="583" d="M500 -4q0 20 -12.5 40t-27 35.5t-27 25l-12.5 9.5l12.5 4t27 13t27 24t12.5 38v169l-333 278v28q0 18 1.5 33t8 26t19 17t33.5 6h126q21 0 33.5 -6t19 -17t8 -26t1.5 -33h83v77q0 37 -26.5 63.5t-65.5 26.5h-231q-41 0 -67 -26.5t-26 -63.5v-110q0 -25 12.5 -43 t27.5 -29.5t27.5 -17l12.5 -5.5l-12.5 -3.5t-27 -13t-27 -26t-12.5 -41.5v-167l332 -276v-41q0 -18 -0.5 -33t-6 -26.5t-17 -17.5t-32.5 -6h-132q-21 0 -33.5 6t-19 17.5t-8 26.5t-1.5 33h-83v-75q0 -19 8 -35.5t22 -29t32 -20t39 -7.5h223q19 0 36 7.5t29.5 20t19.5 29 t7 35.5v107zM417 311q0 -23 0.5 -47.5t-4.5 -45t-18 -33.5t-40 -13l-188 153q0 14 -1.5 39.5t1.5 50t14 42.5t36 18z" />
<glyph unicode="&#xa8;" horiz-adv-x="516" d="M87 776v-83h82v83h-82zM346 776v-83h82v83h-82z" />
<glyph unicode="&#xa9;" horiz-adv-x="841" d="M421 776q-80 0 -150.5 -30.5t-123 -83t-83 -123t-30.5 -151.5t30.5 -151.5t83 -123t123 -83t150.5 -30.5q81 0 151.5 30.5t123 83t83 123t30.5 151.5t-30.5 151.5t-83 123t-123 83t-151.5 30.5zM116 386q0 64 24 120t65 97.5t97 65.5t119 24q64 0 120 -24t98 -65.5 t66 -97.5t24 -120t-24 -120t-66 -97.5t-98 -65.5t-120 -24q-63 0 -119 24t-97 65.5t-65 97.5t-24 120zM345 298v185q-1 1 -2.5 9.5t5 18t29.5 9.5h107q22 0 28.5 -9.5t5.5 -18t-2 -9.5v-48h80v80q1 17 -5.5 33t-17.5 28t-27 19.5t-35 7.5h-163q-38 0 -62.5 -26.5 t-23.5 -61.5v-261q0 -38 25.5 -56.5t58.5 -18.5h168q32 0 57 18.5t25 56.5v92h-80v-48q1 -1 2 -9.5t-5.5 -18t-28.5 -9.5h-107q-23 0 -29.5 9.5t-5 18t2.5 9.5z" />
<glyph unicode="&#xaa;" horiz-adv-x="596" d="M231 706h137v-76h-138q-30 0 -56 -12.5t-45.5 -33.5t-30.5 -47t-11 -53v-79q0 -27 11 -53t30 -46.5t45.5 -33t56.5 -12.5h279v370q0 27 -11.5 53.5t-31 47.5t-46 34t-56.5 13h-134q-28 0 -54.5 -9.5t-47 -27t-33 -41.5t-12.5 -52h69q0 15 7 25.5t18 18t25 11t29 3.5z M368 560v-228h-141v228h141zM92 89h417v83h-417v-83z" />
<glyph unicode="&#xab;" horiz-adv-x="831" d="M49 314l308 -306h137l-305 306l293 291h-140zM310 314l307 -306h137l-305 306l290 291h-135z" />
<glyph unicode="&#xac;" horiz-adv-x="583" d="M84 333h333v-166h83v250h-416v-84z" />
<glyph unicode="&#xae;" horiz-adv-x="841" d="M421 776q-80 0 -150.5 -30.5t-123 -83t-83 -123t-30.5 -151.5t30.5 -151.5t83 -123t123 -83t150.5 -30.5q81 0 151.5 30.5t123 83t83 123t30.5 151.5t-30.5 151.5t-83 123t-123 83t-151.5 30.5zM116 386q0 64 24 120t65 97.5t97 65.5t119 24q64 0 120 -24t98 -65.5 t66 -97.5t24 -120t-24 -120t-66 -97.5t-98 -65.5t-120 -24q-63 0 -119 24t-97 65.5t-65 97.5t-24 120zM267 179h74v170h135q19 0 31.5 -9.5t12.5 -29.5v-131h74v139q0 35 -24 55.5t-56 20.5q32 0 57 19t25 56v46q1 17 -5.5 33t-17.5 28t-27 19.5t-35 7.5h-244v-424zM484 435 h-143v85h143q17 0 26 -13.5t9 -29.5q0 -15 -8.5 -28.5t-26.5 -13.5z" />
<glyph unicode="&#xaf;" horiz-adv-x="528" d="M439 768h-346v-84h346v84z" />
<glyph unicode="&#xb0;" horiz-adv-x="500" d="M250 776q-35 0 -66 -13.5t-54 -37t-36.5 -54.5t-13.5 -66t13.5 -66t36.5 -54t54 -36.5t66 -13.5q36 0 67 13.5t54 36.5t36.5 54t13.5 66q0 36 -13.5 67t-36.5 54t-54 36.5t-67 13.5zM163 605q0 18 7 34t19 28t27.5 19t33.5 7t34 -7t28 -19t19 -28t7 -34q0 -37 -25.5 -63 t-62.5 -26t-62 26t-25 63z" />
<glyph unicode="&#xb1;" horiz-adv-x="583" d="M500 84h-416v-84h416v84zM333 167v166h167v84h-167v166h-83v-166h-166v-84h166v-166h83z" />
<glyph unicode="&#xb2;" horiz-adv-x="405" d="M245 715v-104l-166 -172v-58h249v43h-165v21l165 169v58q0 16 -7.5 31t-19.5 27t-27.5 19t-31.5 7h-77q-17 0 -32.5 -7t-27.5 -18.5t-19 -26t-7 -30.5h40q0 17 14.5 29t31.5 12h80z" />
<glyph unicode="&#xb3;" horiz-adv-x="415" d="M225 754l-105 -85v-40h120v-167h-82q-20 0 -32.5 11.5t-12.5 31.5h-41q0 -16 7 -31.5t19 -27.5t27.5 -19t32.5 -7h80q16 0 31.5 7t27.5 19t19 27.5t7 31.5v86q0 16 -7 30t-19 25t-27.5 17.5t-31.5 6.5h-24l109 84v41h-249v-41h151z" />
<glyph unicode="&#xb4;" horiz-adv-x="472" d="M357 800h-83l-141 -167h83z" />
<glyph unicode="&#xb5;" horiz-adv-x="834" d="M253 0h298q25 0 40 10t23 22.5t10 22.5l2 10l2.5 -10t14.5 -22.5t37 -22.5t70 -10v87q-45 0 -64 20t-19 52v424h-167v-499h-167v499h-166v-582q0 -30 -13 -46t-28.5 -22.5t-28.5 -7l-13 -0.5v-86q90 0 129.5 40t39.5 121z" />
<glyph unicode="&#xb6;" d="M333 667v-250h-75q-42 0 -62 24.5t-20 66.5v77q0 35 20 58.5t62 23.5h75zM333 333v-333h84v667h83v-667h83v750h-329q-34 0 -64.5 -13t-54 -36t-37.5 -53.5t-14 -66.5v-76q0 -38 12.5 -70t35 -54.5t54 -35t68.5 -12.5h79z" />
<glyph unicode="&#xb7;" horiz-adv-x="333" d="M84 500v-167h166v167h-166z" />
<glyph unicode="&#xb8;" horiz-adv-x="333" d="M252 0h-96v-62q0 -36 -21 -46t-56 -10v-69q48 0 81.5 4t53.5 17.5t29 38t9 66.5v61z" />
<glyph unicode="&#xb9;" horiz-adv-x="325" d="M221 419v375h-84l-41 -41v-42l41 42v-334h84z" />
<glyph unicode="&#xba;" horiz-adv-x="596" d="M92 89h417v83h-417v-83zM229 268h144q30 0 56.5 12t46.5 32t31.5 46t11.5 54v227q0 27 -11.5 53t-31.5 46t-46.5 32.5t-56.5 12.5h-144q-29 0 -55.5 -12.5t-46.5 -32.5t-31.5 -46t-11.5 -53v-227q0 -28 11.5 -54t31.5 -46t46.5 -32t55.5 -12zM379 339h-153v375h153v-375z " />
<glyph unicode="&#xbb;" horiz-adv-x="831" d="M769 302l-306 307h-133l301 -307l-298 -290h133zM509 302l-305 307h-134l300 -307l-298 -290h132z" />
<glyph unicode="&#xbc;" horiz-adv-x="800" d="M39 -4h83l624 805h-83zM256 419v375h-84l-41 -41v-42l41 42v-334h84zM596 375l-167 -166v-84h167v-125h83v125h42v41h-42v209h-83zM471 184l125 125v-143h-125v18z" />
<glyph unicode="&#xbd;" horiz-adv-x="800" d="M39 -4h83l624 805h-83zM629 334v-104l-166 -172v-58h249v43h-165v21l165 169v58q0 16 -7.5 31t-19.5 27t-27.5 19t-31.5 7h-77q-17 0 -32.5 -7t-27.5 -18.5t-19 -26t-7 -30.5h40q0 17 14.5 29t31.5 12h80zM256 419v375h-84l-41 -41v-42l41 42v-334h84z" />
<glyph unicode="&#xbe;" horiz-adv-x="800" d="M39 -4h83l624 805h-83zM596 375l-167 -166v-84h167v-125h83v125h42v41h-42v209h-83zM471 184l125 125v-143h-125v18zM225 754l-105 -85v-40h120v-167h-82q-20 0 -32.5 11.5t-12.5 31.5h-41q0 -16 7 -31.5t19 -27.5t27.5 -19t32.5 -7h80q16 0 31.5 7t27.5 19t19 27.5 t7 31.5v86q0 16 -7 30t-19 25t-27.5 17.5t-31.5 6.5h-24l109 84v41h-249v-41h151z" />
<glyph unicode="&#xbf;" d="M259 600v-167h167v167h-167zM94 61v-40q0 -33 15 -63.5t39.5 -54.5t55.5 -38.5t64 -14.5h152q32 0 63 14.5t55 38.5t39 54.5t15 63.5h-82q0 -17 -8 -33t-20.5 -28.5t-29 -20t-32.5 -7.5h-161v120l167 181v108h-167v-99z" />
<glyph unicode="&#xc0;" d="M257 750q-29 0 -59.5 -14t-55 -37t-40 -54t-15.5 -64v-581h166v333h164v-333q8 -1 31 -1h49q27 0 51.5 0.5t35.5 0.5v581q0 33 -16 63.5t-40.5 54t-55.5 37.5t-61 14h-154zM253 418v250h164v-250h-164zM306 877h-70l90 -92h70z" />
<glyph unicode="&#xc1;" d="M257 750q-29 0 -59.5 -14t-55 -37t-40 -54t-15.5 -64v-581h166v333h164v-333q8 -1 31 -1h49q27 0 51.5 0.5t35.5 0.5v581q0 33 -16 63.5t-40.5 54t-55.5 37.5t-61 14h-154zM253 418v250h164v-250h-164zM451 877h-70l-90 -92h70z" />
<glyph unicode="&#xc2;" d="M257 750q-29 0 -59.5 -14t-55 -37t-40 -54t-15.5 -64v-581h166v333h164v-333q8 -1 31 -1h49q27 0 51.5 0.5t35.5 0.5v581q0 33 -16 63.5t-40.5 54t-55.5 37.5t-61 14h-154zM253 418v250h164v-250h-164zM332 921l-131 -132h67l64 65l65 -65h68z" />
<glyph unicode="&#xc3;" d="M257 750q-29 0 -59.5 -14t-55 -37t-40 -54t-15.5 -64v-581h166v333h164v-333q8 -1 31 -1h49q27 0 51.5 0.5t35.5 0.5v581q0 33 -16 63.5t-40.5 54t-55.5 37.5t-61 14h-154zM253 418v250h164v-250h-164zM281 884q-36 0 -59 -25.5t-28 -63.5h53q5 17 14 23t20 6q12 0 27 -4 t29 -11t25.5 -10.5t27.5 -3.5q38 0 63 25.5t31 63.5h-57q-6 -19 -15 -26t-20 -7t-24.5 5.5t-28.5 11.5q-14 6 -27.5 11t-30.5 5z" />
<glyph unicode="&#xc4;" d="M257 750q-29 0 -59.5 -14t-55 -37t-40 -54t-15.5 -64v-581h166v333h164v-333q8 -1 31 -1h49q27 0 51.5 0.5t35.5 0.5v581q0 33 -16 63.5t-40.5 54t-55.5 37.5t-61 14h-154zM253 418v250h164v-250h-164zM176 875v-74h74v74h-74zM409 875v-74h74v74h-74z" />
<glyph unicode="&#xc5;" d="M257 750q-29 0 -59.5 -14t-55 -37t-40 -54t-15.5 -64v-581h166v333h164v-333q8 -1 31 -1h49q27 0 51.5 0.5t35.5 0.5v581q0 33 -16 63.5t-40.5 54t-55.5 37.5t-61 14h-154zM253 418v250h164v-250h-164zM339 988q-20 0 -37.5 -7.5t-31 -21t-21 -31t-7.5 -37.5t7.5 -37.5 t21 -31t31 -21.5t37.5 -8q41 0 69.5 28.5t28.5 69.5q0 20 -8 37.5t-21.5 31t-31 21t-37.5 7.5zM288 891q0 21 15 35.5t36 14.5t36 -14.5t15 -35.5t-15 -36.5t-36 -15.5t-36 15.5t-15 36.5z" />
<glyph unicode="&#xc6;" horiz-adv-x="916" d="M250 418v250h167v-250h-167zM417 333v-333h417v84h-251v249h167v85h-167v249h251v83h-582q-30 0 -60 -13.5t-54 -37t-39 -53.5t-15 -63v-583h166v333h167z" />
<glyph unicode="&#xc7;" d="M386 0h30q35 0 66 12.5t54 35t36 53.5t13 68h-83q0 -19 -7 -35t-19 -27t-27.5 -17.5t-32.5 -6.5h-166v584h166q38 0 62 -22.5t24 -63.5h83q0 38 -13 69.5t-36 53.5t-54 34t-66 12h-160q-38 0 -70 -13.5t-54.5 -36.5t-35 -53.5t-12.5 -65.5v-412q0 -38 12.5 -69t35 -53.5 t54.5 -34.5t70 -12h34v-62q0 -36 -21.5 -46t-56.5 -10v-69q48 0 81.5 4t54 17.5t29.5 38t9 66.5v61z" />
<glyph unicode="&#xc8;" horiz-adv-x="583" d="M417 333v85h-167v249h250v83h-416v-750h416v84h-250v249h167zM306 877h-70l90 -92h70z" />
<glyph unicode="&#xc9;" horiz-adv-x="583" d="M417 333v85h-167v249h250v83h-416v-750h416v84h-250v249h167zM396 877h-70l-90 -92h70z" />
<glyph unicode="&#xca;" horiz-adv-x="583" d="M417 333v85h-167v249h250v83h-416v-750h416v84h-250v249h167zM297 921l-131 -132h67l64 65l65 -65h68z" />
<glyph unicode="&#xcb;" horiz-adv-x="583" d="M417 333v85h-167v249h250v83h-416v-750h416v84h-250v249h167zM141 875v-74h74v74h-74zM374 875v-74h74v74h-74z" />
<glyph unicode="&#xcc;" horiz-adv-x="500" d="M333 0v750h-166v-750h166zM236 877h-70l90 -92h70z" />
<glyph unicode="&#xcd;" horiz-adv-x="500" d="M333 0v750h-166v-750h166zM396 877h-70l-90 -92h70z" />
<glyph unicode="&#xce;" horiz-adv-x="500" d="M333 0v750h-166v-750h166zM252 921l-131 -132h67l64 65l65 -65h68z" />
<glyph unicode="&#xcf;" horiz-adv-x="500" d="M333 0v750h-166v-750h166zM91 875v-74h74v74h-74zM324 875v-74h74v74h-74z" />
<glyph unicode="&#xd0;" d="M250 332h55v85h-55v250h167v-583h-167v248zM84 332v-332h329q33 0 64 14t54.5 37t37.5 54t14 65v410q0 34 -14 65t-37.5 54.5t-54.5 37t-64 13.5h-329v-333h-50v-85h50z" />
<glyph unicode="&#xd1;" horiz-adv-x="750" d="M167 438l460 -438h40v750h-84v-434l-460 434h-39v-750h83v438zM311 884q-36 0 -59 -25.5t-28 -63.5h53q5 17 14 23t20 6q12 0 27 -4t29 -11t25.5 -10.5t27.5 -3.5q38 0 63 25.5t31 63.5h-57q-6 -19 -15 -26t-20 -7t-24.5 5.5t-28.5 11.5q-14 6 -27.5 11t-30.5 5z" />
<glyph unicode="&#xd2;" d="M254 0h159q34 0 64.5 13.5t54 37t37.5 54t14 64.5v412q0 32 -13.5 62.5t-36.5 54t-54 38t-66 14.5h-159q-35 0 -66 -14.5t-54 -38t-36.5 -54t-13.5 -62.5v-412q0 -34 14 -64.5t37.5 -54t54 -37t64.5 -13.5zM417 84h-167v583h167v-583zM261 877h-70l90 -92h70z" />
<glyph unicode="&#xd3;" d="M254 0h159q34 0 64.5 13.5t54 37t37.5 54t14 64.5v412q0 32 -13.5 62.5t-36.5 54t-54 38t-66 14.5h-159q-35 0 -66 -14.5t-54 -38t-36.5 -54t-13.5 -62.5v-412q0 -34 14 -64.5t37.5 -54t54 -37t64.5 -13.5zM417 84h-167v583h167v-583zM456 877h-70l-90 -92h70z" />
<glyph unicode="&#xd4;" d="M254 0h159q34 0 64.5 13.5t54 37t37.5 54t14 64.5v412q0 32 -13.5 62.5t-36.5 54t-54 38t-66 14.5h-159q-35 0 -66 -14.5t-54 -38t-36.5 -54t-13.5 -62.5v-412q0 -34 14 -64.5t37.5 -54t54 -37t64.5 -13.5zM417 84h-167v583h167v-583zM332 921l-131 -132h67l64 65l65 -65 h68z" />
<glyph unicode="&#xd5;" d="M254 0h159q34 0 64.5 13.5t54 37t37.5 54t14 64.5v412q0 32 -13.5 62.5t-36.5 54t-54 38t-66 14.5h-159q-35 0 -66 -14.5t-54 -38t-36.5 -54t-13.5 -62.5v-412q0 -34 14 -64.5t37.5 -54t54 -37t64.5 -13.5zM417 84h-167v583h167v-583zM286 884q-36 0 -59 -25.5t-28 -63.5 h53q5 17 14 23t20 6q12 0 27 -4t29 -11t25.5 -10.5t27.5 -3.5q38 0 63 25.5t31 63.5h-57q-6 -19 -15 -26t-20 -7t-24.5 5.5t-28.5 11.5q-14 6 -27.5 11t-30.5 5z" />
<glyph unicode="&#xd6;" d="M254 0h159q34 0 64.5 13.5t54 37t37.5 54t14 64.5v412q0 32 -13.5 62.5t-36.5 54t-54 38t-66 14.5h-159q-35 0 -66 -14.5t-54 -38t-36.5 -54t-13.5 -62.5v-412q0 -34 14 -64.5t37.5 -54t54 -37t64.5 -13.5zM417 84h-167v583h167v-583zM176 875v-74h74v74h-74zM409 875 v-74h74v74h-74z" />
<glyph unicode="&#xd7;" d="M84 583v-133q0 -44 13.5 -74.5t29.5 -49t29.5 -26.5l13.5 -8l-13.5 -8t-29.5 -28t-29.5 -56t-13.5 -91v-109h166v250h167v-250h166v109q0 55 -14 91t-30.5 56t-30.5 28l-14 8l14 8t30.5 26.5t30.5 49t14 74.5v133h-166v-249h-167v249h-166z" />
<glyph unicode="&#xd8;" d="M252 0h168q36 0 68 13.5t55.5 36.5t37.5 53.5t14 63.5v412q0 5 -1 14.5t-2 16t-1 7.5l79 88l-66 56l-58 -65l-8.5 8.5t-24.5 19t-39.5 19t-53.5 8.5h-168q-35 0 -66 -15t-53.5 -39.5t-35.5 -55.5t-13 -62v-403l-105 -117l64 -59l69 78l9 -12t27 -27t44 -27t60 -12z M428 564l-178 -201v304h178v-103zM250 232l178 202v-350h-178v148z" />
<glyph unicode="&#xd9;" d="M250 750h-166v-581q0 -32 13.5 -62.5t36.5 -54t54 -38t66 -14.5h159q35 0 66 14.5t54 38t36.5 54t13.5 62.5v581h-166v-667h-167v667zM276 877h-70l90 -92h70z" />
<glyph unicode="&#xda;" d="M250 750h-166v-581q0 -32 13.5 -62.5t36.5 -54t54 -38t66 -14.5h159q35 0 66 14.5t54 38t36.5 54t13.5 62.5v581h-166v-667h-167v667zM461 877h-70l-90 -92h70z" />
<glyph unicode="&#xdb;" d="M250 750h-166v-581q0 -32 13.5 -62.5t36.5 -54t54 -38t66 -14.5h159q35 0 66 14.5t54 38t36.5 54t13.5 62.5v581h-166v-667h-167v667zM332 921l-131 -132h67l64 65l65 -65h68z" />
<glyph unicode="&#xdc;" d="M250 750h-166v-581q0 -32 13.5 -62.5t36.5 -54t54 -38t66 -14.5h159q35 0 66 14.5t54 38t36.5 54t13.5 62.5v581h-166v-667h-167v667zM176 875v-74h74v74h-74zM409 875v-74h74v74h-74z" />
<glyph unicode="&#xdd;" d="M250 336v-336h167v336l166 165v249h-166v-293l-84 -83l-83 83v293h-166v-249zM461 877h-70l-90 -92h70z" />
<glyph unicode="&#xde;" d="M250 252v251h167v-251h-167zM417 169q35 0 65 14.5t52.5 38t35.5 53.5t13 61v83q0 36 -14 66.5t-37.5 53t-53.5 35t-61 12.5h-168l1 164h-166v-750h166v169h167z" />
<glyph unicode="&#xdf;" horiz-adv-x="750" d="M417 84v-84h91q75 0 117 43t42 124v158q0 34 -13.5 59t-29.5 41t-29.5 23.5l-13.5 7.5l13.5 6.5t29.5 22t29.5 41.5t13.5 65v14q0 64 -43 104.5t-116 40.5h-181q-39 0 -69 -12t-50.5 -32t-30.5 -46.5t-10 -54.5v-521h-83v-84h248v667h168v-167h-79v-82l79 -1v-333h-83z " />
<glyph unicode="&#xe0;" d="M258 500h159v-84h-165q-32 0 -62 -12t-53.5 -33t-38 -49t-14.5 -61v-89q0 -39 13.5 -71t36.5 -54.5t53.5 -34.5t64.5 -12h331v412q0 32 -12 63t-34.5 55t-54.5 38.5t-72 14.5h-154q-88 0 -130 -41.5t-42 -105.5h81q0 32 20.5 48t72.5 16zM417 333v-249h-167v249h167z M261 800h-83l141 -167h83z" />
<glyph unicode="&#xe1;" d="M258 500h159v-84h-165q-32 0 -62 -12t-53.5 -33t-38 -49t-14.5 -61v-89q0 -39 13.5 -71t36.5 -54.5t53.5 -34.5t64.5 -12h331v412q0 32 -12 63t-34.5 55t-54.5 38.5t-72 14.5h-154q-88 0 -130 -41.5t-42 -105.5h81q0 32 20.5 48t72.5 16zM417 333v-249h-167v249h167z M492 800h-83l-141 -167h83z" />
<glyph unicode="&#xe2;" d="M258 500h159v-84h-165q-32 0 -62 -12t-53.5 -33t-38 -49t-14.5 -61v-89q0 -39 13.5 -71t36.5 -54.5t53.5 -34.5t64.5 -12h331v412q0 32 -12 63t-34.5 55t-54.5 38.5t-72 14.5h-154q-88 0 -130 -41.5t-42 -105.5h81q0 32 20.5 48t72.5 16zM417 333v-249h-167v249h167z M330 828l-154 -153h84l70 71l71 -71h84z" />
<glyph unicode="&#xe3;" d="M258 500h159v-84h-165q-32 0 -62 -12t-53.5 -33t-38 -49t-14.5 -61v-89q0 -39 13.5 -71t36.5 -54.5t53.5 -34.5t64.5 -12h331v412q0 32 -12 63t-34.5 55t-54.5 38.5t-72 14.5h-154q-88 0 -130 -41.5t-42 -105.5h81q0 32 20.5 48t72.5 16zM417 333v-249h-167v249h167z M260 776q-20 0 -42.5 -9t-42 -26t-34 -40.5t-18.5 -51.5h81q12 23 25.5 32.5t27.5 9.5q30 0 66 -22q34 -20 76 -20q52 0 92 32t52 95h-82q-13 -26 -26 -36.5t-27 -10.5q-17 0 -36.5 8.5t-37.5 18.5q-16 9 -34.5 14.5t-39.5 5.5z" />
<glyph unicode="&#xe4;" d="M258 500h159v-84h-165q-32 0 -62 -12t-53.5 -33t-38 -49t-14.5 -61v-89q0 -39 13.5 -71t36.5 -54.5t53.5 -34.5t64.5 -12h331v412q0 32 -12 63t-34.5 55t-54.5 38.5t-72 14.5h-154q-88 0 -130 -41.5t-42 -105.5h81q0 32 20.5 48t72.5 16zM417 333v-249h-167v249h167z M152 776v-83h82v83h-82zM411 776v-83h82v83h-82z" />
<glyph unicode="&#xe5;" d="M258 500h159v-84h-165q-32 0 -62 -12t-53.5 -33t-38 -49t-14.5 -61v-89q0 -39 13.5 -71t36.5 -54.5t53.5 -34.5t64.5 -12h331v412q0 32 -12 63t-34.5 55t-54.5 38.5t-72 14.5h-154q-88 0 -130 -41.5t-42 -105.5h81q0 32 20.5 48t72.5 16zM417 333v-249h-167v249h167z M333 935q-29 0 -54 -11t-43.5 -29.5t-29.5 -44t-11 -53.5q0 -29 11 -54t29.5 -44t43.5 -30t54 -11q28 0 53.5 11t44.5 30t30 44t11 54q0 28 -11 53.5t-30 44t-44.5 29.5t-53.5 11zM255 797q0 32 23 55t55 23t55 -23t23 -55t-23 -55.5t-55 -23.5t-55 23.5t-23 55.5z" />
<glyph unicode="&#xe6;" horiz-adv-x="1000" d="M417 333v-249h-167v249h167zM750 333h-167v168h167v-168zM592 583q-32 0 -54.5 -9t-35.5 -18q-13 9 -35 18t-50 9h-164q-79 0 -124.5 -39t-45.5 -108h81q0 36 25 50t64 14h164v-84h-164q-35 0 -66 -13t-54 -35t-36 -51t-13 -61v-91q0 -35 13.5 -65.5t36.5 -52.5 t53.5 -34.5t65.5 -12.5h497q30 0 59.5 14.5t53.5 37.5t38.5 53t14.5 62h-81q0 -18 -7.5 -33t-20 -26.5t-28.5 -17.5t-32 -6h-164v166h333v162q0 32 -14.5 62.5t-38.5 54.5t-53.5 39t-59.5 15h-158z" />
<glyph unicode="&#xe7;" horiz-adv-x="588" d="M250 84v418h79q17 0 33.5 -8.5t29.5 -22t21 -30t8 -33.5h82q0 33 -15 65t-39 57t-54.5 40t-62.5 15h-79q-29 0 -59 -15t-54.5 -39t-40 -55t-15.5 -64v-240q0 -31 13.5 -62t36.5 -55.5t53.5 -39.5t65.5 -15v-62q0 -36 -21 -46t-56 -10v-69q53 0 86.5 7.5t53 23t26.5 39 t7 56.5v61q29 4 56.5 20t48.5 40t34 54t13 63h-82q0 -18 -8 -34.5t-21 -29.5t-29.5 -21t-33.5 -8h-77z" />
<glyph unicode="&#xe8;" horiz-adv-x="665" d="M250 250h331v162q0 32 -13.5 63t-36.5 55t-55 38.5t-68 14.5h-155q-34 0 -64.5 -14.5t-54 -38.5t-37 -55t-13.5 -63v-240q0 -31 13.5 -62t36.5 -55.5t53.5 -39.5t65.5 -15h155q32 0 63 13.5t55.5 37t39.5 53.5t15 63h-82q0 -18 -8 -33t-21 -26t-30 -17.5t-35 -6.5h-155 v166zM414 333h-164v168h164v-168zM266 800h-83l141 -167h83z" />
<glyph unicode="&#xe9;" horiz-adv-x="665" d="M250 250h331v162q0 32 -13.5 63t-36.5 55t-55 38.5t-68 14.5h-155q-34 0 -64.5 -14.5t-54 -38.5t-37 -55t-13.5 -63v-240q0 -31 13.5 -62t36.5 -55.5t53.5 -39.5t65.5 -15h155q32 0 63 13.5t55.5 37t39.5 53.5t15 63h-82q0 -18 -8 -33t-21 -26t-30 -17.5t-35 -6.5h-155 v166zM414 333h-164v168h164v-168zM492 800h-83l-141 -167h83z" />
<glyph unicode="&#xea;" horiz-adv-x="665" d="M250 250h331v162q0 32 -13.5 63t-36.5 55t-55 38.5t-68 14.5h-155q-34 0 -64.5 -14.5t-54 -38.5t-37 -55t-13.5 -63v-240q0 -31 13.5 -62t36.5 -55.5t53.5 -39.5t65.5 -15h155q32 0 63 13.5t55.5 37t39.5 53.5t15 63h-82q0 -18 -8 -33t-21 -26t-30 -17.5t-35 -6.5h-155 v166zM414 333h-164v168h164v-168zM330 828l-154 -153h84l70 71l71 -71h84z" />
<glyph unicode="&#xeb;" horiz-adv-x="665" d="M250 250h331v162q0 32 -13.5 63t-36.5 55t-55 38.5t-68 14.5h-155q-34 0 -64.5 -14.5t-54 -38.5t-37 -55t-13.5 -63v-240q0 -31 13.5 -62t36.5 -55.5t53.5 -39.5t65.5 -15h155q32 0 63 13.5t55.5 37t39.5 53.5t15 63h-82q0 -18 -8 -33t-21 -26t-30 -17.5t-35 -6.5h-155 v166zM414 333h-164v168h164v-168zM157 776v-83h82v83h-82zM416 776v-83h82v83h-82z" />
<glyph unicode="&#xec;" horiz-adv-x="333" d="M250 0v583h-166v-583h166zM101 800h-83l141 -167h83z" />
<glyph unicode="&#xed;" horiz-adv-x="333" d="M250 0v583h-166v-583h166zM347 800h-83l-141 -167h83z" />
<glyph unicode="&#xee;" horiz-adv-x="333" d="M165 828l-154 -153h84l70 71l71 -71h84zM250 0v583h-166v-583h166z" />
<glyph unicode="&#xef;" horiz-adv-x="333" d="M250 0v583h-166v-583h166zM-4 776v-83h82v83h-82zM255 776v-83h82v83h-82z" />
<glyph unicode="&#xf0;" d="M417 84h-167v416h167v-416zM237 671l-16 -32l62 -26l30 58h104v-88h-163q-36 0 -67 -14t-54 -37.5t-36 -54.5t-13 -65v-240q0 -36 12.5 -67.5t35 -54.5t53.5 -36.5t69 -13.5h158q38 0 69.5 13.5t54 36.5t35 54.5t12.5 67.5v496q0 18 -7.5 34.5t-20 28.5t-29.5 19.5 t-35 7.5h-135l4.5 8.5t8 15.5t4.5 8l-62 26l-30 -58h-118v-87h74z" />
<glyph unicode="&#xf1;" d="M410 583h-326v-583h166v500h167v-500h166v412q0 32 -13.5 63t-37 55t-55 38.5t-67.5 14.5zM255 776q-20 0 -42.5 -9t-42 -26t-34 -40.5t-18.5 -51.5h81q12 23 25.5 32.5t27.5 9.5q30 0 66 -22q34 -20 76 -20q52 0 92 32t52 95h-82q-13 -26 -26 -36.5t-27 -10.5 q-17 0 -36.5 8.5t-37.5 18.5q-16 9 -34.5 14.5t-39.5 5.5z" />
<glyph unicode="&#xf2;" d="M254 0h158q38 0 69.5 13.5t54 36.5t35 54.5t12.5 67.5v240q0 34 -12.5 65t-35 54.5t-54 37.5t-69.5 14h-158q-36 0 -67 -14t-54 -37.5t-36 -54.5t-13 -65v-240q0 -36 12.5 -67.5t35 -54.5t53.5 -36.5t69 -13.5zM417 84h-167v416h167v-416zM246 800h-83l141 -167h83z" />
<glyph unicode="&#xf3;" d="M254 0h158q38 0 69.5 13.5t54 36.5t35 54.5t12.5 67.5v240q0 34 -12.5 65t-35 54.5t-54 37.5t-69.5 14h-158q-36 0 -67 -14t-54 -37.5t-36 -54.5t-13 -65v-240q0 -36 12.5 -67.5t35 -54.5t53.5 -36.5t69 -13.5zM417 84h-167v416h167v-416zM492 800h-83l-141 -167h83z" />
<glyph unicode="&#xf4;" d="M254 0h158q38 0 69.5 13.5t54 36.5t35 54.5t12.5 67.5v240q0 34 -12.5 65t-35 54.5t-54 37.5t-69.5 14h-158q-36 0 -67 -14t-54 -37.5t-36 -54.5t-13 -65v-240q0 -36 12.5 -67.5t35 -54.5t53.5 -36.5t69 -13.5zM417 84h-167v416h167v-416zM330 828l-154 -153h84l70 71 l71 -71h84z" />
<glyph unicode="&#xf5;" d="M254 0h158q38 0 69.5 13.5t54 36.5t35 54.5t12.5 67.5v240q0 34 -12.5 65t-35 54.5t-54 37.5t-69.5 14h-158q-36 0 -67 -14t-54 -37.5t-36 -54.5t-13 -65v-240q0 -36 12.5 -67.5t35 -54.5t53.5 -36.5t69 -13.5zM417 84h-167v416h167v-416zM265 776q-20 0 -42.5 -9 t-42 -26t-34 -40.5t-18.5 -51.5h81q12 23 25.5 32.5t27.5 9.5q30 0 66 -22q34 -20 76 -20q52 0 92 32t52 95h-82q-13 -26 -26 -36.5t-27 -10.5q-17 0 -36.5 8.5t-37.5 18.5q-16 9 -34.5 14.5t-39.5 5.5z" />
<glyph unicode="&#xf6;" d="M254 0h158q38 0 69.5 13.5t54 36.5t35 54.5t12.5 67.5v240q0 34 -12.5 65t-35 54.5t-54 37.5t-69.5 14h-158q-36 0 -67 -14t-54 -37.5t-36 -54.5t-13 -65v-240q0 -36 12.5 -67.5t35 -54.5t53.5 -36.5t69 -13.5zM417 84h-167v416h167v-416zM157 776v-83h82v83h-82z M416 776v-83h82v83h-82z" />
<glyph unicode="&#xf7;" horiz-adv-x="583" d="M500 417h-416v-84h416v84zM332 250h-82v-83h82v83zM332 583h-82v-83h82v83z" />
<glyph unicode="&#xf8;" d="M256 0h158q36 0 66.5 13t53.5 36t36 54t13 66v239q0 24 -3 37l-3 13l81 71l-73 75l-65 -58q-1 1 -12 9.5t-36 18t-58 9.5h-158q-36 0 -67.5 -13.5t-55 -36.5t-36.5 -54t-13 -67v-253l-97 -85l69 -77l68 61l7.5 -9t24 -20t41 -20t59.5 -9zM250 169l167 147v-232h-167v85z M417 454l-167 -147v193h167v-46z" />
<glyph unicode="&#xf9;" d="M256 0h327v583h-166v-500h-167v500h-166v-414q0 -35 13 -66t36.5 -54t55 -36t67.5 -13zM261 800h-83l141 -167h83z" />
<glyph unicode="&#xfa;" d="M256 0h327v583h-166v-500h-167v500h-166v-414q0 -35 13 -66t36.5 -54t55 -36t67.5 -13zM492 800h-83l-141 -167h83z" />
<glyph unicode="&#xfb;" d="M256 0h327v583h-166v-500h-167v500h-166v-414q0 -35 13 -66t36.5 -54t55 -36t67.5 -13zM330 828l-154 -153h84l70 71l71 -71h84z" />
<glyph unicode="&#xfc;" d="M256 0h327v583h-166v-500h-167v500h-166v-414q0 -35 13 -66t36.5 -54t55 -36t67.5 -13zM157 776v-83h82v83h-82zM416 776v-83h82v83h-82z" />
<glyph unicode="&#xfd;" d="M583 583h-166v-465h-167v465h-166v-379q0 -33 13.5 -63.5t37 -53.5t54.5 -37t67 -14h161v-152h-159q-17 0 -34 6.5t-30 17.5t-21 26t-8 32h-81q0 -32 15 -62t39 -53t55 -37t63 -14h154q32 0 63 15t55.5 39t39.5 55t15 63v611zM512 800h-83l-141 -167h83z" />
<glyph unicode="&#xfe;" d="M84 -167h166v167h162q39 0 70.5 15t54 39.5t34.5 55.5t12 62v240q0 33 -13 63.5t-36 54.5t-54.5 38.5t-67.5 14.5h-162v167h-166v-917zM250 84v416h167v-416h-167z" />
<glyph unicode="&#xff;" d="M583 583h-166v-465h-167v465h-166v-379q0 -33 13.5 -63.5t37 -53.5t54.5 -37t67 -14h161v-152h-159q-17 0 -34 6.5t-30 17.5t-21 26t-8 32h-81q0 -32 15 -62t39 -53t55 -37t63 -14h154q32 0 63 15t55.5 39t39.5 55t15 63v611zM157 776v-83h82v83h-82zM416 776v-83h82v83 h-82z" />
<glyph unicode="&#x152;" horiz-adv-x="916" d="M417 83h-168v584h168v-584zM254 0h580v83h-251v251h167v86h-167v247h251v83h-580q-36 0 -67 -15t-54 -39t-36 -55t-13 -62v-407q0 -34 13.5 -65t36.5 -55t54 -38t66 -14z" />
<glyph unicode="&#x153;" horiz-adv-x="1000" d="M750 333h-167v167h167v-167zM417 84h-167v416h167v-416zM505 554q-10 8 -33.5 18.5t-57.5 10.5h-160q-34 0 -65 -14.5t-54 -38.5t-37 -55t-14 -63v-243q0 -36 12 -67t34.5 -53.5t53.5 -35.5t70 -13h160q36 0 59.5 11.5t33.5 17.5q10 -7 32 -18t51 -11h156q35 0 66 15.5 t54 40.5t36.5 57t13.5 66h-81q0 -18 -6.5 -35t-19 -30.5t-29.5 -21.5t-38 -8h-159v166h333v162q0 32 -14 63t-37.5 55.5t-54 39.5t-64.5 15h-156q-32 0 -53.5 -11.5t-31.5 -19.5z" />
<glyph unicode="&#x160;" horiz-adv-x="581" d="M84 521q0 -27 18.5 -55.5t46 -57.5t60 -57.5t60 -54.5t46 -49.5t18.5 -41.5v-122h-76q-40 0 -64.5 24t-24.5 62h-84q0 -35 13.5 -65.5t37 -53.5t55 -36.5t67.5 -13.5h70q38 0 69.5 13.5t54 37t35 54t12.5 64.5v61q0 30 -18.5 61.5t-46 62t-59.5 59.5t-59.5 54.5t-46 46.5 t-18.5 36v118h66q48 0 74.5 -22.5t26.5 -62.5h82q0 34 -13.5 64.5t-37 53t-54.5 36t-66 13.5h-71q-36 0 -67.5 -13t-55 -36t-37 -53.5t-13.5 -66.5v-60zM302 773l165 164h-82l-79 -81l-71 71h-86z" />
<glyph unicode="&#x161;" horiz-adv-x="581" d="M84 377l249 -227v-67h-76q-40 0 -64.5 23t-24.5 61h-84q0 -35 13.5 -65t37 -53t55 -36t67.5 -13h70q38 0 69.5 13.5t54 37t35 54t12.5 64.5v63l-248 212v56h82q38 0 61 -22.5t23 -60.5h82q0 34 -13.5 64t-37 52.5t-54.5 36t-66 13.5h-70q-36 0 -67.5 -10t-55 -29.5 t-37 -47t-13.5 -61.5v-58zM301 663l206 205h-103l-98 -101l-89 89h-108z" />
<glyph unicode="&#x178;" d="M250 336v-336h167v336l166 165v249h-166v-293l-84 -83l-83 83v293h-166v-249zM176 875v-74h74v74h-74zM409 875v-74h74v74h-74z" />
<glyph unicode="&#x192;" horiz-adv-x="500" d="M334 -72v489h83v83h-83v167h80v83h-152q-43 0 -69 -26t-26 -65v-159h-83v-83h83v-497h-83v-85h155q43 0 69 27t26 66z" />
<glyph unicode="&#x2c6;" horiz-adv-x="528" d="M262 858l-193 -192h105l88 89l88 -89h106z" />
<glyph unicode="&#x2dc;" horiz-adv-x="528" d="M195 776q-20 0 -42.5 -9t-42 -26t-34 -40.5t-18.5 -51.5h81q12 23 25.5 32.5t27.5 9.5q30 0 66 -22q34 -20 76 -20q52 0 92 32t52 95h-82q-13 -26 -26 -36.5t-27 -10.5q-17 0 -36.5 8.5t-37.5 18.5q-16 9 -34.5 14.5t-39.5 5.5z" />
<glyph unicode="&#x2013;" horiz-adv-x="500" d="M417 417h-333v-84h333v84z" />
<glyph unicode="&#x2014;" horiz-adv-x="834" d="M750 417h-666v-84h666v84z" />
<glyph unicode="&#x2018;" horiz-adv-x="333" d="M84 698v-254h166v168h-82v58l67 64v46h-67z" />
<glyph unicode="&#x2019;" horiz-adv-x="333" d="M254 532v259h-170v-170h84v-61l-69 -66v-46h69z" />
<glyph unicode="&#x201a;" horiz-adv-x="333" d="M250 25v253h-166v-167h81v-59l-66 -64v-46h66z" />
<glyph unicode="&#x201c;" horiz-adv-x="583" d="M333 698v-254h167v168h-82v58l66 64v46h-66zM84 698v-254h166v168h-82v58l67 64v46h-67z" />
<glyph unicode="&#x201d;" horiz-adv-x="583" d="M254 532v259h-170v-170h84v-61l-69 -66v-46h69zM505 532v259h-172v-170h85v-61l-69 -66v-46h69z" />
<glyph unicode="&#x201e;" horiz-adv-x="583" d="M250 25v253h-166v-167h81v-59l-66 -64v-46h66zM500 25v253h-167v-167h83v-59l-67 -64v-46h67z" />
<glyph unicode="&#x2020;" horiz-adv-x="417" d="M167 196h83v387h83v84h-83v83h-83v-83h-83v-84h83v-387z" />
<glyph unicode="&#x2021;" horiz-adv-x="417" d="M250 333v250h83v84h-83v83h-83v-83h-83v-84h83v-250h-83v-83h83v-83h83v83h83v83h-83z" />
<glyph unicode="&#x2022;" horiz-adv-x="583" d="M293 608q-45 0 -85.5 -17.5t-70.5 -47.5t-47.5 -70t-17.5 -85t17.5 -85t47.5 -70t70.5 -47.5t85.5 -17.5t85.5 17.5t70.5 47.5t47.5 70t17.5 85t-17.5 85t-47.5 70t-70.5 47.5t-85.5 17.5z" />
<glyph unicode="&#x2026;" horiz-adv-x="1167" d="M333 0v167h-166v-167h166zM667 0v167h-167v-167h167zM1000 0v167h-166v-167h166z" />
<glyph unicode="&#x2030;" horiz-adv-x="1167" d="M154 605q0 33 23 56t55 23t55 -23.5t23 -55.5q0 -15 -6 -29t-16.5 -24.5t-25 -17t-30.5 -6.5t-30.5 6t-25 16.5t-16.5 24.5t-6 30zM380 605q0 23 -4.5 38.5t-14.5 35.5h151l-332 -679h99l365 754h-412q-30 0 -57 -12t-47.5 -32t-32 -47t-11.5 -58q0 -30 11.5 -57 t31.5 -47.5t47 -32t58 -11.5t58 11.5t47 32t31.5 47.5t11.5 57zM609 298q-31 0 -58 -12t-47.5 -32t-32 -47t-11.5 -58t11.5 -58t32 -47.5t47.5 -32t58 -11.5t58 11.5t47.5 32t32 47.5t11.5 58t-11.5 58t-32 47t-47.5 32t-58 12zM529 149q0 34 23 57.5t57 23.5q33 0 57 -23.5 t24 -57.5q0 -16 -6.5 -30.5t-18 -25t-26 -17t-30.5 -6.5q-33 0 -56.5 23.5t-23.5 55.5zM964 298q-30 0 -57 -12t-47.5 -32t-32 -47t-11.5 -58t11.5 -58t32 -47.5t47.5 -32t57 -11.5q31 0 58.5 11.5t47.5 32t32 47.5t12 58t-12 58t-32 47t-47.5 32t-58.5 12zM884 149 q0 34 23.5 57.5t56.5 23.5q34 0 57.5 -23.5t23.5 -57.5q0 -16 -6.5 -30.5t-17.5 -25t-26 -17t-31 -6.5t-30.5 6.5t-25.5 17t-17.5 25t-6.5 30.5z" />
<glyph unicode="&#x2039;" horiz-adv-x="559" d="M49 314l307 -306h138l-305 306l295 291h-144z" />
<glyph unicode="&#x203a;" horiz-adv-x="559" d="M528 302l-307 307h-138l306 -307l-292 -290h142z" />
<glyph unicode="&#x2122;" horiz-adv-x="982" d="M173 428h83v268h83v82h-249v-82h83v-268zM773 778l-129 -143l-128 143h-81v-350h81v220l128 -132l129 134v-222h83v350h-83z" />
<glyph unicode="&#x25fc;" horiz-adv-x="585" d="M0 585h585v-585h-585v585z" />
<glyph unicode="&#xe000;" horiz-adv-x="0" />
<glyph unicode="&#xe001;" horiz-adv-x="0" />
<glyph unicode="&#xe003;" horiz-adv-x="946" d="M401 447h139v-142h-139v142zM344 502h-103q-46 0 -78 29t-32 76q0 51 30 83t79 32q26 0 45.5 -9.5t32.5 -25.5t19.5 -37t6.5 -44v-104zM344 447v-142h-106q-34 0 -63.5 -11t-51.5 -31.5t-34.5 -50t-12.5 -66.5q0 -36 12.5 -66t34 -52.5t51.5 -35t66 -12.5q40 0 70 13 t50.5 35.5t30.5 52t10 63.5v106h139v-106q0 -34 9.5 -63.5t29 -52t50 -35.5t71.5 -13q36 0 65.5 12.5t51.5 35t34 52.5t12 66q0 37 -13 66.5t-35 50t-51.5 31.5t-62.5 11h-105v142h105q33 0 62.5 11.5t51.5 32.5t35 51t13 67q0 36 -12 65.5t-34 51.5t-51.5 34t-65.5 12 q-39 0 -69 -12.5t-50.5 -34.5t-30.5 -52t-10 -64v-107h-139v107q0 34 -10 64t-30.5 52t-51 34.5t-71.5 12.5q-35 0 -65 -12t-51.5 -34t-33.5 -51.5t-12 -65.5q0 -37 12.5 -67t34.5 -51t51.5 -32.5t63.5 -11.5h106zM699 502h-103v104q0 23 6.5 44t19.5 37t32.5 25.5t45.5 9.5 q48 0 79.5 -32t31.5 -83q0 -23 -9 -42.5t-24.5 -33.5t-36 -21.5t-42.5 -7.5zM596 250h103q22 0 42.5 -7.5t36 -21t24.5 -33t9 -42.5q0 -51 -31.5 -82.5t-79.5 -31.5q-26 0 -45.5 9t-32.5 25t-19.5 37t-6.5 44v103zM241 250h103v-103q0 -23 -6.5 -44t-19.5 -37t-32.5 -25 t-45.5 -9q-49 0 -79 31.5t-30 82.5q0 47 32 75.5t78 28.5z" />
<glyph unicode="&#xe004;" horiz-adv-x="916" d="M307 0l533 534v199l-553 -553l-212 212v-206l185 -186h47z" />
<glyph unicode="&#xe005;" horiz-adv-x="750" d="M76 316l301 -300l299 303l-297 299z" />
<glyph unicode="&#xe006;" horiz-adv-x="900" d="M68 384q0 -37 12 -80.5t32 -87.5t47 -85t57 -73t61.5 -51t60.5 -19q22 0 42 8.5t36 26.5q8 10 20 14.5t26 5.5q13 0 25.5 -5t20.5 -15q33 -39 88 -39q45 0 83 29t67.5 67.5t49 77t27.5 57.5l-16.5 12t-37 31.5t-39 44.5t-22.5 52q-5 29 8.5 61.5t31.5 60t34 45.5l16 18 q-2 6 -11.5 18.5t-19.5 20.5q-27 19 -60 29t-63 11q-32 -1 -58.5 -8.5t-43.5 -22.5q-23 -18 -41 -25t-36 -7q-17 0 -31 8t-38 24q-22 16 -51.5 22.5t-58.5 6.5q-48 0 -88 -16.5t-69 -46.5t-45 -73t-16 -97zM447 623q0 -8 4.5 -15t16.5 -4q25 6 48 21.5t41.5 37t30.5 46.5 t15 51q1 9 -0.5 14t-11.5 5q-25 -2 -50.5 -16.5t-46.5 -37t-34 -49.5t-13 -53z" />
<glyph unicode="&#xe007;" horiz-adv-x="583" d="M84 332h416v85h-416v-85z" />
<glyph unicode="&#xe008;" horiz-adv-x="750" d="M404 333l37 84h226v83h-193l36 83h-85l-37 -83h-304v-83h271l-39 -84h-232v-83h199l-38 -83h87l37 83h298v83h-263z" />
<glyph unicode="&#xe009;" horiz-adv-x="1167" d="M496 372l-14 -19t-35 -42t-46 -42t-47 -19h-125q-22 0 -34.5 6t-18.5 17t-7.5 26t-1.5 33v85q0 18 1.5 33t7.5 26.5t18.5 17.5t34.5 6h104q30 0 59 -20t52 -44t37.5 -44zM598 345q1 -1 13 -18.5t33.5 -44.5t46 -52.5t49.5 -44t45 -18.5h205q20 0 37.5 7t30 19.5 t19.5 29.5t7 36v233q0 38 -26.5 64.5t-67.5 26.5h-205q-20 0 -49.5 -16t-58.5 -37.5t-55 -45t-41.5 -38t-16.5 -15.5q-1 1 -11.5 15.5t-30.5 38t-46 45t-57.5 37.5t-64.5 16h-177q-41 0 -67 -26.5t-26 -64.5v-233q0 -19 7 -36t19.5 -29.5t29.5 -19.5t37 -7h228 q22 0 48.5 18.5t51 44t46.5 52.5t34 44.5t13 18.5zM836 250q-26 0 -52.5 19t-49 42t-36.5 42l-14 19l13 20t34.5 44t48.5 44t56 20h103q21 0 33.5 -6t18.5 -17.5t7.5 -26.5t1.5 -33v-76q0 -18 -1.5 -34.5t-7.5 -29t-18.5 -20t-33.5 -7.5h-103z" />
<glyph unicode="&#xe00a;" horiz-adv-x="500" d="M428 84h-343v-84h343v84zM405 164l-207 209l207 210h-103l-208 -210l208 -209h103z" />
<glyph unicode="&#xe00b;" horiz-adv-x="500" d="M417 83h-333v-83h333v83zM121 583l209 -209l-209 -210h104l209 210l-209 209h-104z" />
<glyph unicode="&#xe00c;" d="M176 0h238q34 0 64.5 15.5t54 41t37 58t13.5 67.5v272q0 45 -14 84t-41 67.5t-65.5 45t-86.5 16.5h-209v-84h174v-46q-50 0 -96.5 -21.5t-82 -58t-57 -84t-21.5 -98.5v-185q0 -17 8 -33t21 -29t29.5 -20.5t33.5 -7.5zM254 84v244q0 16 8 32t20.5 29t29 20.5t33.5 7.5h78 v-279q0 -21 -16.5 -37.5t-36.5 -16.5h-116z" />
<glyph unicode="&#xe00d;" horiz-adv-x="750" d="M84 750v-74l303 -280l-303 -309v-87h583v167h-84v-83h-284l291 312l-283 271h276v-84h84v167h-583z" />
<glyph unicode="&#xe00e;" horiz-adv-x="834" d="M333 667h167v-667h167v667h83v83h-666v-83h83v-667h166v667z" />
<glyph unicode="&#xe00f;" horiz-adv-x="972" d="M712 604h-544q-44 0 -68 -24t-24 -64v-81h88q0 18 2 33.5t10.5 27.5t26 18.5t47.5 6.5v-521h74l93 93v428h166v-521h76l91 93v428q41 0 67.5 6.5t41.5 18.5t20.5 29t5.5 37v80h-89q0 -25 -2.5 -42t-11.5 -27t-25.5 -14.5t-44.5 -4.5z" />
<glyph unicode="&#xe010;" horiz-adv-x="500" d="M332 -74v741h85v83h-155q-43 0 -69 -26t-26 -65v-743h-83v-83h152q21 0 39 7.5t30.5 20t19.5 29.5t7 36z" />
<glyph unicode="&#xe011;" horiz-adv-x="834" d="M583 332q0 -20 -6 -30t-15.5 -15.5t-20 -8.5t-20 -9.5t-15.5 -19t-6 -36.5v-213h167v84h-84v136q34 0 63.5 9.5t51.5 27.5t34.5 44.5t12.5 61.5v191q0 37 -16 72t-43 62.5t-62.5 44.5t-75.5 17h-264q-42 0 -78.5 -17t-63.5 -44.5t-42.5 -62.5t-15.5 -72v-184 q0 -34 13.5 -62.5t36.5 -49.5t53 -32.5t63 -11.5v-130h-83v-84h160v213q0 22 -6 34t-15 17.5t-19 9t-19 9t-15 16.5t-6 33v242q0 33 13.5 51.5t29.5 27.5t29.5 11.5l13.5 2.5h159l14 -2.5t31.5 -11.5t31.5 -27.5t14 -51.5v-242z" />
<glyph unicode="&#xe012;" horiz-adv-x="1000" d="M405 0l345 748h166v87h-231l-315 -655l-131 348l-161 -100l38 -95l65 37l143 -370h81z" />
<glyph unicode="&#xe013;" horiz-adv-x="834" d="M332 250h210q57 0 91 32.5t34 91.5v42h-84q0 -83 -82 -83h-209q-57 0 -91 -32t-34 -92v-41h82q0 42 22 62t61 20zM332 436h210q57 0 91 32t34 92v41h-84q0 -82 -82 -82h-209q-57 0 -91 -32t-34 -92v-41h82q0 41 22 61.5t61 20.5z" />
<glyph unicode="&#xe014;" horiz-adv-x="786" d="M386 696l-348 -696h713zM164 84l223 444l234 -444h-457z" />
<glyph unicode="&#xe015;" horiz-adv-x="356" />
<glyph unicode="&#xe016;" horiz-adv-x="778" d="M631 395l-245 -245l-243 236l245 253zM386 43l352 353l-350 347l-350 -356z" />
<glyph unicode="&#xe017;" horiz-adv-x="1021" d="M102 427q0 -42 13 -90.5t35.5 -97t52.5 -94t63.5 -80.5t69 -56t68.5 -21q24 0 46 9t40 29q8 11 22 16.5t28 5.5q33 0 52 -22q38 -44 94 -44q35 0 66 15t57.5 39t48.5 53.5t38.5 58t28 53t17.5 38.5l-20 8t-44.5 28.5t-44.5 55.5t-20 88q0 48 16 82t35 56t35 32l16 10 q-5 15 -20.5 30.5t-39.5 28.5t-54.5 21.5t-64.5 8.5q-30 0 -58 -8.5t-48 -25.5q-26 -19 -45.5 -27t-39.5 -8t-34.5 8.5t-43.5 26.5q-23 16 -52.5 24t-62.5 8q-51 0 -96.5 -16t-79.5 -48t-54 -80.5t-20 -114.5zM524 692q0 -9 4.5 -16.5t18.5 -4.5q28 6 53.5 23t46 41t34 52 t16.5 57q1 11 -0.5 16t-12.5 5q-27 -2 -55.5 -18t-51.5 -41t-38 -55t-15 -59z" />
</font>
</defs>
</svg>
